АРХИВ

КАЛЕНДАРЬ

Наши релизы

    Unscrap And Raccoon - Alangasar EP (2018)
    Unscrap - Yagan-Dokiya (2016)
    Alien Form - First Contact (EP) (2016)
    VA - Hanuman Puja (2015)
    Unscrap - Nulesmurt (2014)
    Room Full of Eyes - She's Alive, incredible! (EP) (2014)
    Andy Pashq - Into The Land Of Old And Odd Tales... (2014)
    Unscrap - Inmar EP (3014)
    VinShu - Trying To Think Of Music (2013)
    Unknown Synthesis (aka Nostromosis) - Unreleased [2004-2005] (2013)

Статистика


Онлайн всего: 57
Гостей: 25
Пользователей: 32

kerjenc, Slavyan, wasim, cm00d, Patrick_Connor, Zett555, toddca69, koenigsegg2117, ovanijle, miss-psy, xetebuf, Psydrey, Darkteh, Ahilless, mikstan, Psyboshunter, roman1391, olotuhybauv, extream, eqoeceho, Vladislav2015, evgenator, cerebellum, schraff, adamek, raver, KremPsy, twollah, ekifibi, alexmalex80, [Полный список]

    Главная » Альбомы » Total Eclipse - Tokyo Live 1998 (2019)
    01.04.2019 16:02
    Total Eclipse - Tokyo Live 1998 (2019)


    Исполнитель: Total Eclipse
    Диск: Tokyo Live 1998
    Дата релиза: 01.04.2019
    Лейбл: Suntrip Records
    Купить: bandcamp.com
    Жанр: Psychedelic
    Стиль: GOA Trance
    Формат: mp3
    Битрейт: 320kbps
    Кол-во композиций: 13
    Время звучания: 02:39:44
    Размер: 338Mb (+3% Information for recovery)

    Треклист:

    01. Electro Gismo (Live) (07:06)
    02. Defrost (Live) (07:50)
    03. Kikamboot (Live) (06:15)
    04. Partycles (Live) (06:36)
    05. Sunrise (Live) (10:41)
    06. Collapsar (Live) (06:33)
    07. Miyukette (Live) (07:16)
    08. Chaotic Circus (Live) (05:30)
    09. Free Lemonade (Live) (05:41)
    10. Space Clinic (Live) (05:49)
    11. Are You Abducted (Live) (06:14)
    12. Psychedelic Terrorist (Live) (05:38)
    13. Tokyo Live 1998 (Full Live) (01:18:27)



    Категория:
    [GOA Trance]
    Просмотров:
    885
    Id материала:
    16966
    Добавил:
    Pixel за что ему огромное  



Всего комментариев: 14
1 2 »
[Цитировать]
Pixel 06.04.2019 в 07:32 написал:
#14
FLAC
[Цитировать]
Славянин111 05.04.2019 в 15:39 написал:
#13
Зря скачал(
[Цитировать]
max80 05.04.2019 в 00:33 написал:Спам
#12
уже не заходит. и чего так всем нравится?магия имени чтоли?
[Цитировать]
FullRuOn 04.04.2019 в 21:03 написал:
#11
Для всех желающих услышать 13 - й трек с разбивкой сделайте такой

Total Eclipse.cue - файл

TITLE "Total Eclipse - Tokyo Live 1998 (Live)"
FILE "13 Total Eclipse - Tokyo Live 1998 (Live).mp3" MP3
TRACK 01 AUDIO
TITLE "Electro Gismo"
PERFORMER "Total Eclipse"
INDEX 01 00:00:00
TRACK 02 AUDIO
TITLE "Defrost"
PERFORMER "Alexipharmic"
INDEX 01 07:06:16
TRACK 03 AUDIO
TITLE "Kikamboot"
PERFORMER "Total Eclipse"
INDEX 01 14:57:32
TRACK 04 AUDIO
TITLE "Partycles"
PERFORMER "Total Eclipse"
INDEX 01 21:12:63
TRACK 05 AUDIO
TITLE "Sunrise"
PERFORMER "The Antidote"
INDEX 01 27:42:69
TRACK 06 AUDIO
TITLE "Collapsar"
PERFORMER "Total Eclipse"
INDEX 01 37:28:46
TRACK 07 AUDIO
TITLE "Miyukette"
PERFORMER "Total Eclipse"
INDEX 01 44:47:36
TRACK 08 AUDIO
TITLE "Chaotic Circus"
PERFORMER "Total Eclipse"
INDEX 01 50:32:69
TRACK 09 AUDIO
TITLE "Free Lemonade"
PERFORMER "Total Eclipse"
INDEX 01 55:57:39
TRACK 10 AUDIO
TITLE "Space Clinic"
PERFORMER "Total Eclipse"
INDEX 01 61:35:21
TRACK 11 AUDIO
TITLE "Are You Abducted"
PERFORMER "Total Eclipse"
INDEX 01 66:52:72
TRACK 12 AUDIO
TITLE "Psychedelic Terrorist"
PERFORMER "Total Eclipse"
INDEX 01 73:01:16
[Цитировать]
GR16043K 04.04.2019 в 20:48 написал:
#10
олд голд 5+
[Цитировать]
ZNZNZNZ 02.04.2019 в 21:32 написал:
#9
Цитата 12. FullRuOn (FullRuOn) ()
такого проекта Я не слышал, и уж поскольку он был упомянут рядом с Total Eclipse - Я решил, что это GOA

да-да-да. о шпонглах новость на главной рядом с этой. я же говорю 1апреля продолжается
[Цитировать]
FullRuOn 02.04.2019 в 19:51 написал:
#8
Альбом просто подарок - Спасибо!!!
[Цитировать]
Novychok 02.04.2019 в 19:33 написал:
#7
Цитата 7. FullRuOn (FullRuOn) ()
то - за такой GOA - проект шпонглы - подскажите A?

FullRuOn то ты не понял.
[Цитировать]
ZNZNZNZ 01.04.2019 в 23:44 написал:
#6
Pixel, красавчик. спасибище и респектище!  это мощнейшее огнище 
[Цитировать]
ZNZNZNZ 01.04.2019 в 23:31 написал:
#5
Цитата 4. Владимир (Novychok) ()
Праздник души трансера


вот-вот. но шпонглы заслушаны уже до бесконечности и все равно мощны - жгут-обжигают,
а вот этот эклипс тотальный сжигает со страшной силой и не нужно никаких ему закрытых неб и слушаний телом. это тупо испепеляет даже против твоей воли. (даже в кетайских наушниках (наверно)).
вот реальная магия и гипнотизм. шаманы!
1-10 11-14
Добавлять комментарии могут только зарегистрированные пользователи.
[ Регистрация | Вход ]

АВТОРИЗАЦИЯ

Забыл пароль
 Светлый дизайн 

 Темный дизайн 

Мини Чат

16966